QQ登录

只需一步,快速开始

扫一扫,访问微社区

 找回密码
 立即注册

QQ登录

只需一步,快速开始

扫一扫,访问微社区

查看: 430|回复: 61

发烧草原男声销量冠军《云中飞歌2 HQ2》原抓WAV+CUE

  [复制链接]
发表于 2016-12-19 12:10:33 | 显示全部楼层 |阅读模式
01.jpg
专辑名称:云中飞歌 HQCDⅡ
专辑艺人:云飞
制作公司:天艺文化传播有限公司
发行时间:2016年12月
资源格式:正版CD原抓WAV+CUE

本无损资源  旨在宣传推广正版唱片,
谨向制作者表示由衷的敬意! 本资源会员自赏后删除  严禁转载  违者一律删号!
请购买正品 天艺  唱片  效果最好  享高品质 Hifi文化!


02.jpg

专辑简介
HQCDⅡ引领音响界进入CD高清音乐时代
取HQCD和AQCD之所长,更忠实更接近原盘音质

他是央视《星光大道》总决赛年度亚军,他是“感动百姓山西乡村”爱心形象大使,他受邀2016央视《春节联欢晚会》,他就是——云飞,一个坚持拼搏的实力唱将,一个不断追梦的音乐人,一个热心公益的领跑者。专辑收录了16首不同风格的民族风情曲,让我们一起见证灵魂歌者云飞的传奇色彩。特别推荐:2016央视《春节联欢晚会》歌曲——《守望相助》。

03.jpg

专辑曲目:
01.马兰花
02.天河
03.天边
04.守望相助
05.绣满霞光的蒙古袍
06.向往神鹰  回复可见192k 试听
游客,如果您要查看本帖隐藏内容请回复

07.一对对鸳鸯
08.老家的味道
09.天边的缘
10.岩缝里盛开的花
11.爱的眼神
12.暗香
13.你是哥哥的心头肉
14.回乡姑娘
15.牡丹花放羊娃
16.陪你一起看草原


444286_12760791832YXy.gif

游客,如果您要查看本帖隐藏内容请回复



游客,如果您要查看本帖隐藏内容请回复



Exact Audio Copy V1.0 beta 3 from 29. August 2011

EAC 抓取日志文件从29. 十一月 2016, 13:18
妙声藏碟  云中飞歌 HQCDⅡ - 经典&新歌荟萃
使用驱动器  :PIONEER DVD-RW  DVR-219L   Adapter: 0  ID: 0
读取模式      : 可靠Secure
使用精确流     : 是
清空音频缓存    : 是
使用 C2 指示器 : 否

读取偏移校正:               : 0
读取 Lead-In 和 Lead-Out : 否
用静音填充抓取中丢失偏移的采样       : 是
去除首尾静音块               : 否
在CRC 计算中使用了空样本       : 是
已用接口                  : Win NT 及 2000 本地 Win32 接口

所用输出模式: : 内部 WAV 函数
样本格式    : 44.100 Hz; 16 Bit; 立体声


已抓取 CD 的 TOC

     音轨 |    起始    |    长度    |  起始扇区  |  结束扇区  
    --------------------------------------------
      1 |  0:00.00 |  4:30.27 |      0 |  20276
      2 |  4:30.27 |  4:22.22 |  20277 |  39948
      3 |  8:52.49 |  4:51.68 |  39949 |  61841
      4 | 13:44.42 |  4:08.74 |  61842 |  80515
      5 | 17:53.41 |  4:20.35 |  80516 | 100050
      6 | 22:14.01 |  5:41.29 | 100051 | 125654
      7 | 27:55.30 |  4:17.53 | 125655 | 144982
      8 | 32:13.08 |  4:17.19 | 144983 | 164276
      9 | 36:30.27 |  4:52.46 | 164277 | 186222
     10 | 41:22.73 |  4:33.03 | 186223 | 206700
     11 | 45:56.01 |  4:08.50 | 206701 | 225350
     12 | 50:04.51 |  4:34.08 | 225351 | 245908
     13 | 54:38.59 |  3:54.49 | 245909 | 263507
     14 | 58:33.33 |  3:35.30 | 263508 | 279662
     15 | 62:08.63 |  4:15.42 | 279663 | 298829
     16 | 66:24.30 |  3:53.51 | 298830 | 316355


范围状态及错误

已选择范围
     文件名 G:\精品\妙声藏碟  云中飞歌 HQCDⅡ - 经典&新歌荟萃.wav
     峰值电平 100.0 %
     抓取速度 3.2 X
     范围质量 100.0%
     复制 CRC A04602C4
     复制成功

没有错误发生
状态报告结尾


















































发表于 2016-12-19 12:13:36 | 显示全部楼层
在电视上初次认识云飞,这次又能听到他的歌声了,感谢楼主。
 楼主| 发表于 2016-12-19 12:15:50 | 显示全部楼层
正品HQ2无损资源。
当今发烧草原男声绝对销量冠军,双实力歌手,经典与新歌荟萃,收藏型资源,怎能错过。
发表于 2016-12-20 01:26:19 | 显示全部楼层
当今发烧草原男声绝对销量冠军,双实力歌手,经典与新歌荟萃
发表于 2016-12-20 02:09:12 | 显示全部楼层
感谢楼主分享好音乐!
发表于 2016-12-20 10:35:19 | 显示全部楼层
不管你信不信,反正我是信了。
发表于 2016-12-20 10:35:21 | 显示全部楼层
不管你信不信,反正我是信了。
发表于 2016-12-20 11:24:44 | 显示全部楼层
感謝大大的分享啊   
发表于 2016-12-20 16:53:59 | 显示全部楼层
啥也不说了,楼主就是给力!
发表于 2016-12-20 16:55:11 | 显示全部楼层
啥也不说了,楼主就是给力!
发表于 2016-12-21 08:03:25 | 显示全部楼层
哥顶的不是帖子,是寂寞!
发表于 2016-12-22 00:18:43 | 显示全部楼层
能够在如此精彩的帖子留下自己的网名是多么骄傲的一件事啊!
发表于 2016-12-23 15:00:34 | 显示全部楼层
谢谢楼主分享
发表于 2016-12-23 15:46:39 | 显示全部楼层
谢谢楼主分享!!!
发表于 2016-12-23 17:41:42 | 显示全部楼层
  谢谢楼主分享好音乐!!!
您需要登录后才可以回帖 登录 | 立即注册

本版积分规则


GMT+8, 2017-1-23 04:18 , Processed in 0.265625 second(s), 47 queries .

© 2012-2015 www.1qt8.com X3.2. Theme By 1qt8! Licensed

快速回复 返回顶部 返回列表