QQ登录

只需一步,快速开始

扫一扫,访问微社区

 找回密码
 立即注册

QQ登录

只需一步,快速开始

扫一扫,访问微社区

查看: 1278|回复: 161

独家首发 碟碟难休 经久不息《童丽国语十大金曲HQ》原抓W...

  [复制链接]
发表于 2016-11-13 15:00:49 | 显示全部楼层 |阅读模式
DSC_3854.JPG
碟    名:国语十大金曲  HQ
歌    者:  童丽
制作发行:天艺文化
出       版:  齐鲁音像
发行时间:2016.11.12.
资源格式:正版CD原抓WAV+CUE
全网独家首发  无损资源  旨在宣传推广正版唱片
谨向制作者表示由衷的敬意! 本资源会员自赏后删除  严禁转载  违者一律删号!
请购买正品 天艺 唱片  效果最好  享高品质 Hifi文化


DSC_3856.JPG

童丽的歌声甜美细腻,温柔清润,妩媚醉人。

专辑收录的国语金曲,每一首都在讲述故事,每一首都是心灵深处的表白,动人至深。


DSC_3862.JPG

国语十大金曲,全新演绎,经久不息。


DSC_3864.JPG

曲目:
01. 听说爱情来过
02. 经过
03. 风吹麦浪
04. 知道不知道
05. 独角戏
06. 蜀秀
07. 那片海
08. 执迷不悟
09. 短发
10. 一笑而过                       唱功的力道在于你听完后难以自己
11. 记事本                          有人听完此曲的后果  泪如泉涌   
12.爱上一个不回家的人      此曲只在桃花源  

回复见试听256K
游客,如果您要查看本帖隐藏内容请回复

      

DSC_3859.JPG


Exact Audio Copy V1.1 from 23. June 2015
EAC 抓取日志文件从16. 十一月 2016, 21:16
妙声藏碟  听吧独家首发无损 童丽国语十大金曲HQ / 大牌演绎  经久不息
使用驱动器  :TEAC    DW-224E-V   Adapter: 1  ID: 0
读取模式      : 可靠Secure
使用精确流     : 是
清空音频缓存    : 是
使用 C2 指示器 : 否

组合读写偏移校正:             : 0
读取 Lead-In 和 Lead-Out : 否
用静音填充抓取中丢失偏移的采样       : 是
去除首尾静音块               : 否
在CRC 计算中使用了空样本       : 是
已用接口                  : Win NT 及 2000 本地 Win32 接口

所用输出模式: : 内部 WAV 函数
样本格式    : 44.100 Hz; 16 Bit; 立体声

已抓取 CD 的 TOC
     音轨 |    起始    |    长度    |  起始扇区  |  结束扇区  
    --------------------------------------------
      1 |  0:00.00 |  5:30.38 |      0 |  24787
      2 |  5:30.38 |  4:18.57 |  24788 |  44194
      3 |  9:49.20 |  4:10.33 |  44195 |  62977
      4 | 13:59.53 |  3:55.17 |  62978 |  80619
      5 | 17:54.70 |  3:59.28 |  80620 |  98572
      6 | 21:54.23 |  4:24.64 |  98573 | 118436
      7 | 26:19.12 |  4:37.29 | 118437 | 139240
      8 | 30:56.41 |  4:41.33 | 139241 | 160348
      9 | 35:37.74 |  3:44.07 | 160349 | 177155
     10 | 39:22.06 |  4:34.22 | 177156 | 197727
     11 | 43:56.28 |  4:42.04 | 197728 | 218881
     12 | 48:38.32 |  4:37.38 | 218882 | 239694

范围状态及错误
已选择范围
     文件名 G:\自抓精品\妙声藏碟  听吧独家首发无损 童丽国语十大金曲HQ - 大牌演绎  经久不息.wav
     峰值电平 100.0 %
     抓取速度 3.2 X
     范围质量 100.0 %
     复制 CRC A39F516B
     复制成功

没有错误发生
状态报告结尾
---- CUETools DB Plugin V2.1.6
[CTDB TOCID: QwWnY.9frJdru60tfIwzhQBvugA-] disk not present in database
Submit result: QwWnY.9frJdru60tfIwzhQBvugA- has been uploaded


444286_12760791832YXy.gif



游客,如果您要查看本帖隐藏内容请回复
























发表于 2016-11-18 01:02:30 来自手机 | 显示全部楼层
童丽新作,娓娓道来。
回复 支持 1 反对 0

使用道具 举报

 楼主| 发表于 2016-11-13 15:10:13 | 显示全部楼层
去年此时,童童一碟粤语十大金曲横空出世,压轴年终碟市,勇夺大奖。

峰回路转,姐妹篇国语十大金曲翩翩而至,期待惊喜。

童童有唱不完的歌,我们有听不完的碟。  

不知何时她有一张童安格的专辑,伯乐知否?!

坛兴共荣  ,一路有你才精彩,请下载者自律,thanks.
发表于 2016-11-17 15:18:59 | 显示全部楼层
国语十大金曲,全新演绎 谢谢。
发表于 2016-11-17 16:16:00 | 显示全部楼层
童丽, 这个美女的声音确实相当好,百听不厌。
发表于 2016-11-17 16:29:59 | 显示全部楼层
看了楼主的帖,神马都是浮云!
发表于 2016-11-18 08:21:18 | 显示全部楼层
很好的资源
发表于 2016-11-18 08:22:44 | 显示全部楼层
很好的资源,谢谢楼主的工作。
发表于 2016-11-18 09:18:24 | 显示全部楼层
多谢楼主无私分享好资源
发表于 2016-11-18 10:02:19 | 显示全部楼层
不管你信不信,反正我是信了。

评分

参与人数 1威望 +35 贡献 +35 收起 理由
妙声云鹤 + 35 + 35

查看全部评分

发表于 2016-11-18 10:02:22 | 显示全部楼层
不管你信不信,反正我是信了。
发表于 2016-11-18 10:31:29 | 显示全部楼层
全新演绎 谢谢。
发表于 2016-11-18 10:47:20 | 显示全部楼层
碟碟难休 经久不息
发表于 2016-11-18 13:33:22 | 显示全部楼层
樓主辛苦了,謝謝分享好音樂!
发表于 2016-11-18 20:31:36 | 显示全部楼层
女神的最新好碟,收了,谢谢楼主的无私分享.有你,一起听吧会越来越精彩啊.

评分

参与人数 1威望 +35 贡献 +55 收起 理由
妙声云鹤 + 35 + 55

查看全部评分

发表于 2016-11-18 22:10:02 | 显示全部楼层
牛!估计我这辈子再也见不到这样的帖子了!
您需要登录后才可以回帖 登录 | 立即注册

本版积分规则


GMT+8, 2017-1-23 04:23 , Processed in 0.312500 second(s), 53 queries .

© 2012-2015 www.1qt8.com X3.2. Theme By 1qt8! Licensed

快速回复 返回顶部 返回列表