QQ登录

只需一步,快速开始

扫一扫,访问微社区

 找回密码
 立即注册

QQ登录

只需一步,快速开始

扫一扫,访问微社区

查看: 606|回复: 65

琴箫与茶禅的对话 轻烟伴天籁齐韵 龙源《茶界》原抓WAV+CUE

  [复制链接]
发表于 2016-11-3 12:05:48 | 显示全部楼层 |阅读模式
DSC07508.JPG
碟    名:茶界
制作发行:龙源
出    版: 广东音像
发行时间:2016.2.
资源格式:正版CD原抓WAV+CUE
全网独家首发  无损资源  旨在宣传推广正版唱片
谨向制作者表示由衷的敬意! 本资源会员自赏后删除  严禁转载  违者一律删号!
请购买正品 龙源 唱片  效果最好  享高品质 Hifi文化!

DSC07509.JPG
龙源音乐全新打造《茶界》,古琴与笛箫的优美结合。

碧水秋素,静坐一隅红尘,以淡雅如莲的姿态,守候岁月缄默。沏一杯绿茶,揽一片祥云,韵一份雅致,击一下缶钵,对一张古琴,品一首诗词,于余音袅袅间,静心体味《茶界》的绝妙意境。

巫娜,当代最有成就的青年古琴演奏家之一。九岁开始学习古琴。2004年,毕业于中央音乐学院研究生部。成为古琴演奏专业的第一位硕士。

侯长青,国家一级演员、中国音乐家协会会员、中央音乐学院笛子硕士、中国广播民族乐团笛子声部首席、全国社会艺术水平考级高级考官、文化部政府奖首届国际民族器乐比赛金奖获得者、中央电视台“光荣绽放”十大青年笛子演奏家。

DSC07510.JPG

1、《虚空望月》       回复见试听256K   
游客,如果您要查看本帖隐藏内容请回复

“春江潮水连海平,海上明月共潮生。滟滟随波千万里,何处春江无月明?”一杯清茶,一曲弦音,不仅让人联想那夜里的月、那江中的水。一轮明月伴随潮头冉冉升起,与江潮互相辉映。琴者指尖,是一幅画卷:空调、孤寂、幽远、清冷,天际皓月与潺潺流水融合在一起,渐远渐无,瞬间的虚空,瞬间的永恒。

2、《琴音茶语》

明月静静照进山林,照进幽深的小院。在这样的夜晚,铺一张宣纸,伴着一曲禅音,挥毫,作画,画上山水,渲染云烟。清泉石上流,明月松间照,在峰回路转的云水深处,僧庐茅舍里把一壶茶闲煮。

3、《叶水相逢》

提壶,水落,烟起,舒展,薄如蝉羽的花瓣瞬间花容失色,浪漫的紫花瓣居然洇染出一缕缕的淡黄,芳华落幕,春光贻尽,徒留片片残香飘浮水面。叶水相逢,是一场煎熬?还是彼此的成全?与其"一种相思,两处闲愁"或"盈盈一水间,脉脉不得语”,不如任其“金风玉露一相逢,便胜却人间无数”。

4、《茶禅》

叮咚山泉,瀑布流淌,幽幽苍木,溪流指间,火红枫霞,层林尽染;突兀的高峰,鸟瞰俯视苍生,云生山谷,万物蔼然;一串风铃掠过,犹见古刹深山。于一曲清音中,思绪飘飘忽忽,似乎山水尽在虚无飘渺中,“花间一壶酒,对影成三人”的意境不经意间翩然而至,久远的故人仿佛就在眼前。

5、《谷水怀香》

雨落,弦起,披上一身沁凉,与夜的深处款款凝立。十指渐次,拟水成弦,看一叶无依飘落,荡放一池涟漪,惊醒沉惘夜籁,微颤的心弦倾刻间缀满了晶莹。禅音渺渺,夜溪潺潺,绿水白石,素手索面,诗韵悠悠,名香袅袅。

6、《方寸一席》

清晨,迷雾、森林、流水;鸟鸣、微风、曙光;山谷里徜徉的片片流岚,是舒缓的飞翔;碧波上踏浪而来的点点白帆,是靓丽的倩影;蓝天下变幻无穷的朵朵浮云,是快乐的追逐;星空里风姿绰约的隐约光影,是曼妙的舞蹈。
7、《茶乐花香》

一曲清音,让丝丝禅意融进生命,在心底安静的生长。听着那荡气回肠的旋律,那如泣如诉的音质,那催人遐思的意境,那恍若天籁的和弦,无不让人心潮激荡,思绪难平。如同坐在花树下听风,就连呼吸也是染了香气的,无言无语便可领会其心,那是开在心间超越灵犀之外的花朵,仿佛一世静好的期盼,在微风拂面的白云间,听涛涛水流的轻吟,在心底荡漾开来。

8、《茶香竹林》

竹海最扣人心弦的是翠得醉人的绿浪,远眺绵绵竹海、翠竹如起伏的海洋波涛,一望无际,与远方的蓝天相连相融。谁说,读懂过竹的傲骨?在一波荡漾间,发现那孤独傲然的心灵。竹,如人的心情,也寂寞,也淡薄,也黯然,却用自己的坚韧,惊喜世人的心灵,让静美的坚强与温暖,流淌在世人的心间。

9、《心似莲花开》

“看取莲花净,应知不染心。”莲,在雨色朦胧时节,那圆圆满满的叶沾满晶莹的雨珠,映射出清淡干净的容颜,在月色银辉如水的夜色间,悄然打动世人的眼。佛曰:淡定即从容,世间风月,不忘初心,赏花的心情,总能心静即安。莲虽出于淤泥,但清静无垢,朵朵沁出馨香,如暖风轻轻带走凌冽,所以莲是微微禅风,是一朵佛的解语。

10、《一具一梦幻》

轻轻吟诵一首禅诗,“春有百花秋有月,夏有凉风冬有雪。若无闲事挂心头,便是人间好时节。”那些带着禅意的诗句就着带着禅意的琴曲扑面而来,划破了千年的时空,摇乱了月光下的青衫,感知着世界的存在。


Exact Audio Copy V1.0 beta 3 from 29. August 2011
EAC 抓取日志文件从14. 二月 2016, 16:22
妙声藏碟 听吧独家无损《龙源 茶界》 / 琴箫说茶事  只乐此中
使用驱动器  :TSSTcorpDVD-ROM TS-H352D   Adapter: 0  ID: 0
读取模式      : 可靠Secure
使用精确流     : 是
清空音频缓存    : 是
使用 C2 指示器 : 否

读取偏移校正:               : 0
读取 Lead-In 和 Lead-Out : 否
用静音填充抓取中丢失偏移的采样       : 是
去除首尾静音块               : 否
在CRC 计算中使用了空样本       : 是
已用接口                  : Win NT 及 2000 本地 Win32 接口

所用输出模式: : 内部 WAV 函数
样本格式    : 44.100 Hz; 16 Bit; 立体声


已抓取 CD 的 TOC
     音轨 |    起始    |    长度    |  起始扇区  |  结束扇区  
    --------------------------------------------
      1 |  0:00.00 |  5:06.60 |      0 |  23009
      2 |  5:06.60 |  6:07.23 |  23010 |  50557
      3 | 11:14.08 |  5:14.30 |  50558 |  74137
      4 | 16:28.38 |  3:54.51 |  74138 |  91738
      5 | 20:23.14 |  5:22.48 |  91739 | 115936
      6 | 25:45.62 |  4:21.39 | 115937 | 135550
      7 | 30:07.26 |  4:57.53 | 135551 | 157878
      8 | 35:05.04 |  5:15.63 | 157879 | 181566
      9 | 40:20.67 |  5:23.54 | 181567 | 205845
     10 | 45:44.46 |  5:41.24 | 205846 | 231444


范围状态及错误
已选择范围
     文件名 F:\妙声藏碟 听吧独家无损《龙源 茶界》 - 琴箫说茶事  只乐此中.wav
     峰值电平 100.0 %
     抓取速度 3.5 X
     范围质量 99.9 %
     复制 CRC EE06A72C
     复制成功

没有错误发生
状态报告结尾

444286_12760791832YXy.gif






游客,如果您要查看本帖隐藏内容请回复






























 楼主| 发表于 2016-11-3 12:11:15 | 显示全部楼层
如果你好茶,再好乐,能舍此碟?
美,如画,澹泊的水墨画。

适逢龙源茶界 第2辑上市,忆起首辑抓而未发,补上,以飨众友。
发表于 2016-11-3 17:19:02 | 显示全部楼层
看了LZ的帖子,我只想说一句很好很强大!
发表于 2016-11-3 18:44:07 | 显示全部楼层
下载听听,谢谢楼主
发表于 2016-11-4 08:11:22 | 显示全部楼层
啥也不说了,楼主就是给力!
发表于 2016-11-4 09:28:02 | 显示全部楼层
啥也不说了,楼主就是给力!
发表于 2016-11-4 10:20:25 | 显示全部楼层
不管你信不信,反正我是信了。
发表于 2016-11-4 10:20:29 | 显示全部楼层
不管你信不信,反正我是信了。
发表于 2016-11-4 10:39:27 | 显示全部楼层
謝謝大大的用心啊     
发表于 2016-11-4 10:39:27 | 显示全部楼层
謝謝大大的用心啊     
发表于 2016-11-4 11:23:20 来自手机 | 显示全部楼层
巫娜古琴经典让人淘醉
发表于 2016-11-4 17:17:53 | 显示全部楼层
不管你信不信,反正我是信了。
发表于 2016-11-6 11:54:51 | 显示全部楼层
看了LZ的帖子,我只想说一句很好很强大!
发表于 2016-11-6 14:43:46 | 显示全部楼层
古典好曲,余音绵绵!
发表于 2016-11-6 14:44:47 | 显示全部楼层
啥也不说了,楼主就是给力!
发表于 2016-11-6 17:03:45 | 显示全部楼层

看了LZ的帖子,我只想说一句很好很强大!
您需要登录后才可以回帖 登录 | 立即注册

本版积分规则


GMT+8, 2017-1-23 04:20 , Processed in 0.328125 second(s), 47 queries .

© 2012-2015 www.1qt8.com X3.2. Theme By 1qt8! Licensed

快速回复 返回顶部 返回列表