QQ登录

只需一步,快速开始

扫一扫,访问微社区

 找回密码
 立即注册

QQ登录

只需一步,快速开始

扫一扫,访问微社区

查看: 1245|回复: 137

只为音质而生 乐霸音响顶级试音碟《绝响》原抓WAV+CUE

  [复制链接]
发表于 2016-10-24 11:51:09 | 显示全部楼层 |阅读模式
DSC07503.JPG
本碟为2016年10月成都国际音响展发烧友私用碟,
品质超群,专门推荐给论坛金耳群,过瘾岂在三两遍?!
禁止转载,违者封号。

DSC07502.JPG
曲目以图为准     回复可见试听地址
游客,如果您要查看本帖隐藏内容请回复


DSC07504.JPG


Exact Audio Copy V1.0 beta 3 from 29. August 2011
EAC 抓取日志文件从24. 十月 2016, 11:14
妙声藏碟 精挑细选品质试音碟 / 乐霸音响 绝响
使用驱动器  :PIONEER DVD-ROM DVD-130P   Adapter: 0  ID: 0
读取模式      : 可靠Secure
使用精确流     : 是
清空音频缓存    : 是
使用 C2 指示器 : 否

读取偏移校正:               : 6
读取 Lead-In 和 Lead-Out : 否
用静音填充抓取中丢失偏移的采样       : 是
去除首尾静音块               : 否
在CRC 计算中使用了空样本       : 是
已用接口                  : Win NT 及 2000 本地 Win32 接口

所用输出模式: : 内部 WAV 函数
样本格式    : 44.100 Hz; 16 Bit; 立体声


已抓取 CD 的 TOC
     音轨 |    起始    |    长度    |  起始扇区  |  结束扇区  
    --------------------------------------------
      1 |  0:00.00 |  4:46.24 |      0 |  21473
      2 |  4:46.24 |  5:50.25 |  21474 |  47748
      3 | 10:36.49 |  3:57.25 |  47749 |  65548
      4 | 14:33.74 |  4:19.00 |  65549 |  84973
      5 | 18:52.74 |  5:26.59 |  84974 | 109482
      6 | 24:19.58 |  3:37.19 | 109483 | 125776
      7 | 27:57.02 |  4:25.52 | 125777 | 145703
      8 | 32:22.54 |  6:50.73 | 145704 | 176526
      9 | 39:13.52 |  4:51.12 | 176527 | 198363
     10 | 44:04.64 |  3:47.01 | 198364 | 215389


范围状态及错误
已选择范围
     文件名 F:\自抓集锦\妙声藏碟 精挑细选品质试音碟 - 乐霸音响 绝响.wav
     峰值电平 99.9 %
     抓取速度 3.5 X
     范围质量 100.0 %
     复制 CRC BD4D0FB9
     复制成功

没有错误发生
状态报告结尾

444286_12760791832YXy.gif

游客,如果您要查看本帖隐藏内容请回复


游客,如果您要查看本帖隐藏内容请回复


















 楼主| 发表于 2016-10-24 16:19:53 | 显示全部楼层
2016年10月23日,成都国际音响展圆满闭幕,编者如期而至。
乐霸音响是2015年-2016年国内七个音响展的现场销售冠军。
LS 3/5A书架式音箱是音响界一个传奇,乐霸的目标是尽可能靠近它,给乐迷带来更多的实惠体验。

此试音碟抛开商业元素,以发烧为唯一标准,选曲全面独到,过耳不忘。
萍聚,再坐一会,黄河,鼓王,都非常发烧,走西口更需注意调校音量,相当爆棚。
成都国际音响展纪念碟另择日发出。
发表于 2016-10-24 22:43:39 | 显示全部楼层
最爱试音碟,谢谢分享,必下
发表于 2016-10-24 22:45:08 | 显示全部楼层
啥也不说了,楼主就是给力!
发表于 2016-10-25 00:15:58 | 显示全部楼层
看了LZ的帖子,我只想说一句很好很强大!
发表于 2016-10-25 00:17:48 | 显示全部楼层
看了楼主的帖,神马都是浮云!
发表于 2016-10-25 02:17:58 | 显示全部楼层
看了LZ的帖子,我只想说一句很好很强大!
发表于 2016-10-25 07:55:44 | 显示全部楼层
试音碟,不容错过哟!谢谢分享!  
发表于 2016-10-25 08:13:49 | 显示全部楼层
谢谢楼主分享
发表于 2016-10-25 10:41:50 | 显示全部楼层
不管你信不信,反正我是信了。
发表于 2016-10-25 10:41:53 | 显示全部楼层
不管你信不信,反正我是信了。
发表于 2016-10-25 15:00:37 | 显示全部楼层
好东西,下来听听,谢了、、、
发表于 2016-10-25 21:23:41 | 显示全部楼层
谢谢楼主分享
您需要登录后才可以回帖 登录 | 立即注册

本版积分规则


GMT+8, 2017-1-21 21:36 , Processed in 0.343832 second(s), 47 queries .

© 2012-2015 www.1qt8.com X3.2. Theme By 1qt8! Licensed

快速回复 返回顶部 返回列表