QQ登录

只需一步,快速开始

扫一扫,访问微社区

 找回密码
 立即注册

QQ登录

只需一步,快速开始

扫一扫,访问微社区

查看: 1138|回复: 79

独家 本年度极致男声天碟《钟志刚 刚刚好》 原抓WAV+CUE

  [复制链接]
发表于 2016-8-9 20:04:31 | 显示全部楼层 |阅读模式
DSC07466.JPG
碟    名:刚刚好
歌    者:  钟志刚
制作发行:云仑电子&乾哒文化
出    版: 广东音像
发行时间:2016.7.
资源格式:正版CD原抓WAV+CUE
全网独家首发  无损资源  旨在宣传推广正版唱片
谨向制作者表示由衷的敬意! 本资源会员自赏后删除 !
严禁转载  违者一律删号!
请购买正品 云仑  唱片  效果最好  享高品质 Hifi文化!
DSC07465.JPG
广州云龠(yue)签约歌手锺志剛(小剛)2016年全新专辑《刚刚好》丙申年淺颂
曲笛云淡、口哨风清
口琴袅袅,提琴迷离
刚刚好。
吉他荡漾、风琴隐约
陶笛悠远、钢琴缠绵
刚刚好。
DSC07470.JPG
2016年全新专辑:锺志剛(小剛)丙申年淺颂 《刚刚好》
關於回憶、純粹、珍貴…
入髓之聲
歌者小剛-鍾志剛
HIFI人声丙申年浅颂
DSC07467.JPG
似风、似雨、似山间的空灵;经过了岁月的沉淀—灵感触动、构思、採樣、錄音、無數修改斟酌取捨。一次次地聆听,一次次地讨论,每一首歌曲的背后承载着音乐制作团队与歌手完美的梦,把人生的历程通过音乐诉说,把情感通过音乐释放,这不是一张专辑,而是一张传承!
——期間錄音師寧俊先生經歷過三場感冒
——這全新理念HIFI專輯總算可以面世了,
每一個聲音和力度都诉说着故事,各種艱辛、折磨、可愛、愉悅…
精心收录12首精选每首都是动人主旋律!《又唱起这首歌》《你在我的冬季里》……
当我们终于静下来重新聆听这些歌曲时,我们被小刚的歌声深深撼动。我们听见“流水年华”的小刚,听见了“我有一段情”的小刚对他诠释着“*浪漫的事”,也同时听见了“乌兰巴托的夜”,*动人的情歌。于是在这张专辑里,我们不只听见了歌,我们还听见了小刚阐述生命故事。
所有的故事都在音樂里,
正如此刻您的聆聽,
也都構成故事,美、希望、愛、求索……
一直在延續。
专辑曲目:
01. 我有一段情 4.50

02. 贝加尔湖畔 4.02

03. 永隔一江水 3.54

04. 乌兰巴托的夜 4.32

05. 你在我的冬季 4.49

06. 流水年华 4.45

07. 垄上行 4.05

08. 敲敲门 3.16

09. 最浪漫的事 4.55

10. 又唱起这首歌 4.47

11. 最远的你是我最近的爱 5.10

12. 梨花又开放 4.14


Exact Audio Copy V1.0 beta 3 from 29. August 2011
EAC 抓取日志文件从9. 八月 2016, 18:43
妙声藏碟 听吧首发 小刚极致浅颂 / 阔别数载今方现 刚刚好
使用驱动器  :PIONEER DVD-ROM DVD-130P   Adapter: 0  ID: 0
读取模式      : 可靠Secure
使用精确流     : 是
清空音频缓存    : 是
使用 C2 指示器 : 否
读取偏移校正:               : 6
读取 Lead-In 和 Lead-Out : 否
用静音填充抓取中丢失偏移的采样       : 是
去除首尾静音块               : 否
在CRC 计算中使用了空样本       : 是
已用接口                  : Win NT 及 2000 本地 Win32 接口
所用输出模式: : 内部 WAV 函数
样本格式    : 44.100 Hz; 16 Bit; 立体声

已抓取 CD 的 TOC
     音轨 |    起始    |    长度    |  起始扇区  |  结束扇区  
    --------------------------------------------
      1 |  0:00.00 |  4:58.69 |      0 |  22418
      2 |  4:58.69 |  4:03.41 |  22419 |  40684
      3 |  9:02.35 |  3:55.59 |  40685 |  58368
      4 | 12:58.19 |  4:32.03 |  58369 |  78771
      5 | 17:30.22 |  4:48.72 |  78772 | 100443
      6 | 22:19.19 |  4:46.25 | 100444 | 121918
      7 | 27:05.44 |  4:06.35 | 121919 | 140403
      8 | 31:12.04 |  3:17.22 | 140404 | 155200
      9 | 34:29.26 |  4:56.20 | 155201 | 177420
     10 | 39:25.46 |  4:48.16 | 177421 | 199036
     11 | 44:13.62 |  5:11.65 | 199037 | 222426
     12 | 49:25.52 |  4:15.13 | 222427 | 241564

范围状态及错误
已选择范围
     文件名 F:\自抓集锦\妙声藏碟 听吧首发 小刚极致浅颂 - 阔别数载今方现 刚刚好.wav
     峰值电平 100.0 %
     抓取速度 3.6 X
     范围质量 100.0 %
     复制 CRC C88C2DFD
     复制成功
没有错误发生
状态报告结尾

444286_12760791832YXy.gif



游客,如果您要查看本帖隐藏内容请回复


按  非常喜欢此碟  光是文案已凸显卓尔不凡。浅颂,谦谦君子也,赞。
云仑 新东家,宁俊,实力雄厚,我们一起期待。
在没有纯商业化的更好版本出现之前,这就是最好的版本,等不急了,耳朵发痒。

评分

参与人数 1威望 +80 金钱 +80 贡献 +80 收起 理由
蓝调 + 80 + 80 + 80 赞一个!

查看全部评分

 楼主| 发表于 2016-8-9 20:04:32 | 显示全部楼层
首识云仑,不俗,发烧普通DSD类别王者,听后即知。
曲曲发烧,独家资源,未设试听。
圈内大腕云集,宁俊,珞叔,峰子。。。
品质标识   
发表于 2016-8-9 20:54:23 | 显示全部楼层
感谢分享  美妙音乐  快乐无极限
发表于 2016-8-10 08:34:31 | 显示全部楼层
感谢分享  美妙音乐  快乐无极限
发表于 2016-8-10 11:52:48 | 显示全部楼层
不管你信不信,反正我是信了。
发表于 2016-8-10 11:52:50 | 显示全部楼层
不管你信不信,反正我是信了。
发表于 2016-8-10 14:30:30 | 显示全部楼层

感谢分享  美妙音乐
发表于 2016-8-10 18:37:20 | 显示全部楼层
感謝大大的分享啊
发表于 2016-8-11 08:19:24 | 显示全部楼层
谢谢楼主分享
发表于 2016-8-11 13:37:33 | 显示全部楼层

感謝大大的分享啊
发表于 2016-8-11 13:45:03 | 显示全部楼层
不管你信不信,反正我是信了。
您需要登录后才可以回帖 登录 | 立即注册

本版积分规则


GMT+8, 2017-1-23 04:24 , Processed in 0.312500 second(s), 50 queries .

© 2012-2015 www.1qt8.com X3.2. Theme By 1qt8! Licensed

快速回复 返回顶部 返回列表